<?xml version="1.0" standalone="no"?>
<!DOCTYPE svg PUBLIC "-//W3C//DTD SVG 1.1//EN" "http://www.w3.org/Graphics/SVG/1.1/DTD/svg11.dtd" >
<svg xmlns="http://www.w3.org/2000/svg">
<metadata>Generated by IcoMoon</metadata>
<defs>
<font id="icomoon" horiz-adv-x="1024">
<font-face units-per-em="1024" ascent="960" descent="-64" />
<missing-glyph horiz-adv-x="1024" />
<glyph unicode="&#x20;" d="" />
<glyph unicode="&#xe900;" glyph-name="arrow_down" horiz-adv-x="904" d="M451.765-64v0c-3.012 0-9.035 0-12.047 0s-6.024 3.012-9.035 6.024l-421.647 424.659c-12.047 12.047-12.047 30.118 0 42.165s30.118 12.047 42.165 0l370.447-370.447v891.482c0 18.071 12.047 30.118 30.118 30.118s30.118-12.047 30.118-30.118v-891.482l370.447 370.447c12.047 12.047 30.118 12.047 42.165 0s12.047-30.118 0-42.165l-421.647-421.647c0 0-6.024-6.024-9.035-6.024s-6.024 0-12.047 0v0z" />
<glyph unicode="&#xe901;" glyph-name="arrow_down_small" horiz-adv-x="1067" d="M554.667 64v0c-4.267 0-12.8 0-17.067 0 0 0-4.267 0-8.533 0v0c0 0-4.267 0-4.267 4.267l-256 256c-17.067 17.067-17.067 42.667 0 59.733s42.667 17.067 59.733 0l183.467-183.467v588.8c0 25.6 17.067 42.667 42.667 42.667s42.667-17.067 42.667-42.667v-580.267l183.467 183.467c17.067 17.067 42.667 17.067 59.733 0s17.067-42.667 0-59.733l-256-256s0 0 0 0c0 0 0 0 0 0s0 0 0 0v0s0 0 0 0v0s0 0 0 0c0 0 0 0 0 0s0 0 0 0 0 0 0 0 0 0 0 0v0s0 0 0 0v0c0 0-8.533-8.533-12.8-8.533v0s0 0 0 0c-4.267 0-8.533 0-17.067 0v0z" />
<glyph unicode="&#xe902;" glyph-name="arrow_left" horiz-adv-x="1365" d="M529.067-64c-17.067 0-28.444 0-39.822 17.067l-455.111 455.111c0 0-11.378 11.378-11.378 17.067s0 11.378 0 22.756h-5.689c0 5.689 0 17.067 0 22.756s5.689 11.378 11.378 17.067l460.8 455.111c22.756 22.756 56.889 22.756 79.644 0s22.756-56.889 0-79.644l-358.4-358.4h1075.2c34.133 0 56.889-22.756 56.889-56.889s-22.756-56.889-56.889-56.889h-1075.2l358.4-358.4c22.756-22.756 22.756-56.889 0-79.644s-28.444-17.067-39.822-17.067z" />
<glyph unicode="&#xe903;" glyph-name="arrow_right" horiz-adv-x="1365" d="M836.267-64c-17.067 0-28.444 0-39.822 17.067-22.756 22.756-22.756 56.889 0 79.644l358.4 358.4h-1080.889c-34.133 0-56.889 22.756-56.889 56.889s22.756 56.889 56.889 56.889h1075.2l-352.711 358.4c-22.756 22.756-22.756 56.889 0 79.644s56.889 22.756 79.644 0l455.111-455.111c0 0 11.378-11.378 11.378-17.067s0-11.378 0-22.756v0c0-5.689 0-17.067 0-22.756s-5.689-11.378-11.378-17.067l-455.111-455.111c-11.378-11.378-28.444-17.067-39.822-17.067z" />
<glyph unicode="&#xe904;" glyph-name="building" d="M768 64h-512c-21.333 0-42.667 8.533-59.733 25.6s-25.6 38.4-25.6 59.733v597.333c0 21.333 8.533 42.667 25.6 59.733s38.4 25.6 59.733 25.6h512c21.333 0 42.667-8.533 59.733-25.6s25.6-38.4 25.6-59.733v-597.333c0-21.333-8.533-42.667-25.6-59.733s-38.4-25.6-59.733-25.6zM618.667 149.333h149.333v597.333h-512v-597.333h149.333v128c0 25.6 17.067 42.667 42.667 42.667h128c25.6 0 42.667-17.067 42.667-42.667v-128zM490.667 149.333h42.667v85.333h-42.667v-85.333zM618.667 405.333c-25.6 0-42.667 17.067-42.667 42.667s17.067 42.667 42.667 42.667 42.667-17.067 42.667-42.667v0c0-25.6-17.067-42.667-42.667-42.667zM405.333 405.333c-25.6 0-42.667 17.067-42.667 42.667s17.067 42.667 42.667 42.667 42.667-17.067 42.667-42.667v0c0-25.6-17.067-42.667-42.667-42.667zM405.333 576c-25.6 0-42.667 17.067-42.667 42.667s17.067 42.667 42.667 42.667 42.667-17.067 42.667-42.667v0c0-25.6-17.067-42.667-42.667-42.667zM618.667 576c-25.6 0-42.667 17.067-42.667 42.667s17.067 42.667 42.667 42.667 42.667-17.067 42.667-42.667v0c0-25.6-17.067-42.667-42.667-42.667z" />
<glyph unicode="&#xe905;" glyph-name="arrow_up_right" d="M149.695-64c-34.712 0-69.424 0-86.78 34.712-52.068 52.068-52.068 138.847 0 190.915l520.679 520.679h-242.984c-69.424 0-138.847 52.068-138.847 138.847s52.068 138.847 138.847 138.847h555.391c0 0 34.712 0 52.068 0s34.712 0 34.712-17.356v0s0 0 0 0v0s0 0 0 0v0s0 0 0 0c0 0 17.356-17.356 17.356-34.712 0 0 0-34.712 0-52.068v0-555.391c0-69.424-52.068-138.847-138.847-138.847s-138.847 52.068-138.847 138.847v242.984l-520.679-520.679c-17.356-17.356-52.068-34.712-86.78-34.712z" />
<glyph unicode="&#xe906;" glyph-name="chevron_down" horiz-adv-x="1638" d="M819.2-2.56l-788.48 788.48c-30.72 40.96-30.72 102.4 0 143.36s102.4 30.72 143.36 0l645.12-645.12 645.12 645.12c40.96 40.96 102.4 40.96 143.36 0s40.96-102.4 0-143.36l-788.48-788.48z" />
<glyph unicode="&#xe907;" glyph-name="facebook" d="M186.976 960c-103.576 0-186.976-83.4-186.976-186.976v-650.048c0-103.578 83.4-186.976 186.976-186.976h352.321v400.319h-105.856v144.128h105.856v123.136c0 96.742 62.545 185.569 206.623 185.569 58.336 0 101.472-5.601 101.472-5.601l-3.392-134.593c0 0-43.994 0.416-92 0.416-51.955 0-60.288-23.939-60.288-63.681v-105.248h156.416l-6.816-144.128h-149.6v-400.318h145.312c103.578 0 186.976 83.398 186.976 186.976v650.047c0 103.576-83.398 186.976-186.976 186.976l-650.048 0.001z" />
<glyph unicode="&#xe908;" glyph-name="instagram" horiz-adv-x="1088" d="M780.301 960h-472.612c-73.094-0.078-143.172-29.149-194.858-80.835s-80.756-121.764-80.835-194.858v-472.615c0.078-73.094 29.149-143.174 80.835-194.861 51.686-51.68 121.764-80.755 194.858-80.832h472.612c73.094 0.077 143.174 29.152 194.861 80.832 51.686 51.686 80.755 121.766 80.832 194.861v472.615c-0.077 73.094-29.146 143.172-80.832 194.858s-121.766 80.756-194.861 80.835zM543.996 211.693c-46.737 0-92.425 13.856-131.286 39.827-38.86 25.965-69.149 62.867-87.034 106.049-17.885 43.18-22.565 90.694-13.447 136.532s31.624 87.946 64.672 120.994c33.048 33.048 75.155 55.554 120.994 64.672s93.352 4.438 136.532-13.447c43.18-17.885 80.088-48.174 106.053-87.034s39.821-84.548 39.821-131.286c-0.064-62.653-24.979-122.721-69.28-167.021-44.307-44.307-104.372-69.222-167.025-69.286zM839.379 684.308c-11.68 0-23.104 3.464-32.819 9.956s-17.286 15.718-21.76 26.513c-4.474 10.795-5.638 22.673-3.36 34.133s7.904 21.986 16.166 30.248c8.262 8.262 18.79 13.889 30.246 16.168 11.462 2.28 23.341 1.11 34.138-3.361 10.79-4.472 20.019-12.044 26.509-21.759 6.496-9.715 9.958-21.137 9.958-32.822 0-15.668-6.227-30.694-17.306-41.773s-26.106-17.303-41.773-17.303zM701.536 448c0-31.158-9.242-61.617-26.554-87.524-17.306-25.907-41.912-46.102-70.699-58.025s-60.462-15.040-91.021-8.96c-30.559 6.074-58.63 21.082-80.662 43.112-22.032 22.032-37.036 50.103-43.115 80.662s-2.959 62.235 8.964 91.021c11.924 28.787 32.116 53.391 58.023 70.701s56.365 26.55 87.524 26.55c41.782 0 81.852-16.598 111.396-46.142 29.542-29.544 46.144-69.615 46.144-111.396z" />
<glyph unicode="&#xe909;" glyph-name="linkedin" d="M845.084 959.715h-665.6c-98.987 0-179.2-80.213-179.2-179.2v-665.031c0-98.987 80.213-179.2 179.2-179.2h665.031c98.987 0 179.2 80.213 179.2 179.2v665.031c0 98.987-80.213 179.2-179.2 179.2zM313.742 88.746h-149.049v479.573h149.049v-479.573zM239.218 633.742c-47.787 0-86.471 38.684-86.471 86.471s38.684 86.471 86.471 86.471 86.471-38.684 86.471-86.471-38.684-86.471-86.471-86.471zM871.822 88.746h-149.049v233.244c0 55.751-1.138 126.862-77.369 126.862s-89.316-60.302-89.316-122.88v-237.227h-149.049v479.573h142.791v-65.422h1.707c19.911 37.547 68.267 77.369 141.084 77.369 150.756 0 178.631-98.987 178.631-228.124v-262.827z" />
<glyph unicode="&#xe90a;" glyph-name="logo" horiz-adv-x="1011" d="M249.631 359.974h-34.855v-134.3c0-10.437 6.761-19.233 14.835-19.233h31.114c-6.958 11.881-11.093 26.059-11.093 41.288v112.245zM621.093 528.608c0-47.59-38.728-86.252-86.252-86.252h-61.899v-41.288h-35.053v41.288h-61.965c-47.59 0-86.252 38.728-86.252 86.252v4.135h-4.858v-285.080c0-22.712 15.294-41.157 34.133-41.288h272.935c18.839 0.066 34.134 18.576 34.134 41.288v285.080h-4.858v-4.135h-0.065zM526.111 306.676h-141.523v35.052h141.523v-35.052zM289.606 676.301h-76.669c-8.205 0-14.835-7.089-14.835-15.754v-76.931c0-8.665 6.63-15.754 14.835-15.754h76.669v108.439zM661.005 247.664c0-15.229-4.070-29.342-11.093-41.288h31.114c8.008 0 14.835 8.796 14.835 19.233v134.302h-34.855v-112.246zM455.349 741.942c-27.044 0-50.15-12.734-59.208-30.523h118.416c-9.058 17.789-32.164 30.523-59.208 30.523zM504.845 960h-504.845v-1009.69h504.845c278.843 0 504.845 226.002 504.845 504.845s-226.002 504.845-504.845 504.845zM747.651 583.614c0-28.029-22.384-50.872-49.887-50.872h-36.693v-137.715h69.908v-169.354c0-29.932-22.384-54.285-49.887-54.285h-89.272c0 0-0.066 0-0.131 0h-272.673c0 0-0.066 0-0.131 0h-89.272c-27.504 0-49.887 24.353-49.887 54.285v169.354h69.908v137.715h-36.693c-27.504 0-49.887 22.777-49.887 50.872v76.931c0 28.029 22.384 50.872 49.887 50.872h145.986c9.255 37.415 48.968 65.641 96.427 65.641s87.171-28.226 96.427-65.641h145.986c27.504 0 49.887-22.843 49.887-50.872v-76.931zM697.764 676.301h-76.668v-108.439h76.668c8.205 0 14.835 7.089 14.835 15.754v76.931c0 8.73-6.63 15.754-14.835 15.754zM375.861 477.409h61.965v38.466h35.052v-38.466h61.899c28.226 0 51.2 22.974 51.2 51.2v147.692h-261.317v-147.692c0-28.226 22.974-51.2 51.2-51.2z" />
<glyph unicode="&#xe90b;" glyph-name="speech_bubble" d="M115.117-63.488c-44.755 0-70.329 19.18-76.723 51.149-19.181 51.149 31.968 83.118 51.149 95.903 38.362 25.574 57.543 44.754 63.936 63.939 0 12.785-6.393 25.574-19.181 44.754 0 0 0 6.395-6.394 6.395-63.936 83.113-95.904 185.411-95.904 287.71 0 262.138 217.382 473.126 479.52 473.126s479.518-210.989 479.518-473.126c0-262.136-217.38-473.126-479.518-473.126-31.968 0-63.936 6.395-95.904 12.785-166.234-83.113-287.712-89.508-287.712-89.508-6.393 0-6.393 0-12.787 0zM242.989 262.584c31.968-44.754 44.755-95.903 38.362-140.657 0-6.395-6.394-19.185-6.394-25.574 31.968 12.785 63.936 25.574 102.298 44.754 12.787 6.395 25.574 12.785 38.362 6.395h6.393c25.574-6.395 57.543-12.79 89.51-12.79 191.81 0 351.646 153.446 351.646 345.255s-159.836 351.648-351.646 351.648c-191.808 0-351.648-153.446-351.648-345.254 0-76.725 25.574-153.448 76.723-210.987 0-6.395 6.393-6.395 6.393-12.79z" />
<glyph unicode="&#xe90c;" glyph-name="tiktok" horiz-adv-x="960" d="M795.104 741.021c-6.976 3.575-13.766 7.494-20.352 11.741-19.13 12.527-36.666 27.286-52.237 43.96-39.008 44.188-53.574 89.012-58.899 120.366h0.179c-4.454 26.075-2.618 42.913-2.298 42.913h-177.574v-680.006c0-9.101 0-18.157-0.367-27.078 0-1.094-0.138-2.093-0.184-3.322 0-0.454 0-1.005-0.138-1.504v-0.41c-1.865-24.39-9.754-47.955-22.973-68.621-13.219-20.659-31.363-37.792-52.835-49.875-22.401-12.627-47.739-19.245-73.512-19.206-82.7 0-149.779 66.803-149.779 149.306 0 82.552 67.079 149.356 149.779 149.356 15.667 0 31.242-2.458 46.129-7.281l0.23 179.115c-45.209 5.777-91.136 2.209-134.883-10.48s-84.362-34.222-119.283-63.241c-30.605-26.328-56.337-57.743-76.038-92.834-7.489-12.788-35.791-64.256-39.191-147.716-2.159-47.328 12.221-96.474 19.067-116.723v-0.454c4.273-11.923 20.997-52.698 48.196-87.059 21.934-27.571 47.849-51.802 76.911-71.898v0.454l0.413-0.454c85.917-57.792 181.251-54.016 181.251-54.016 16.494 0.685 71.766 0 134.526 29.44 69.606 32.678 109.21 81.325 109.21 81.325 25.32 29.069 45.457 62.202 59.544 97.978 16.079 41.862 21.41 92.013 21.41 112.032v360.826c2.157-1.274 30.874-20.068 30.874-20.068s41.35-26.257 105.811-43.322c46.221-12.15 108.57-14.744 108.57-14.744v174.61c-21.824-2.367-66.163 4.46-111.603 26.849l0.045 0.045z" />
<glyph unicode="&#xe90d;" glyph-name="wide_arrow" horiz-adv-x="1969" d="M1906.605 960c-10.12-28.007-25.5-53.9-32.991-82.963-60.737-256.613-224.457-439.781-428.983-588.229-70.4-51.135-160.431-86.745-247.331-103.761-247.229-51.875-494.809-45.576-736.839 25.695-69.793 20.401-136.771 54.945-199.394 99.958 23.538 1.233 48.937 3.247 73.246 2.647 70.296-0.75 141.363-3.338 211.978 0.364 29.889 1.739 61.503 15.002 90.486 29.322 11.158 4.681 20.959 28.233 18.196 40.034-2.765 11.802-22.4 27.325-32.469 25.261-178.103-18.556-354.245 15.553-530.572 34.464-61.769 6.487-90.3-14.123-91.81-73.078-2.3-145.692 28.237-286.247 88.209-418.777 1.541-3.673 11.291-6.063 27.073-12.402 92.766 86.439 9.974 189.952 24.603 306.255 22.265-16.581 39.269-31.047 56.591-41.060 353.755-186.407 727.501-206.74 1111.389-110.494 57.781 13.44 115.747 42.080 167.684 74.669 189.919 120.716 336.715 281.667 428.010 486.294 29.086 66.206 38.989 141.643 50.434 213.408 5.63 28.283-7.471 59.509-12.68 87.565-11.611 1.61-23.221 3.219-34.83 4.829z" />
<glyph unicode="&#xe90e;" glyph-name="x" horiz-adv-x="1088" d="M652.045 526.409l381.184 433.591h-90.349l-330.892-376.467-264.413 376.467h-304.919l399.782-569.344-399.782-454.656h90.346l349.49 397.604 279.242-397.604h304.922l-414.611 590.409zM528.343 385.683l-362.816 507.757h138.757l638.673-893.952h-138.758l-275.855 386.195z" />
<glyph unicode="&#xe90f;" glyph-name="youtube" horiz-adv-x="1344" d="M661.325 960c-649.958 0-661.333-58.115-661.333-512 0-453.882 11.375-512 661.333-512s661.331 58.118 661.331 512c0 453.885-11.373 512-661.331 512zM873.28 425.791l-296.936-139.372c-25.99-12.102-47.285 1.466-47.285 30.323v262.516c0 28.792 21.295 42.423 47.285 30.321l296.936-139.37c25.99-12.235 25.99-32.182 0-44.417z" />
<glyph unicode="&#xe910;" glyph-name="car" d="M742.4 89.6c-40.96 0-81.92 15.36-107.52 46.080s-30.72 35.84-35.84 56.32h-168.96c-5.12-20.48-20.48-40.96-35.84-56.32-56.32-56.32-158.72-56.32-215.040 0s-30.72 35.84-35.84 56.32h-35.84c-25.6 0-51.2 10.24-71.68 30.72s-30.72 46.080-30.72 71.68v102.4c0 40.96 15.36 81.92 46.080 107.52 20.48 20.48 40.96 30.72 66.56 40.96l25.6 138.24c5.12 35.84 25.6 66.56 51.2 87.040s61.44 35.84 97.28 35.84h266.24c25.6 0 51.2-5.12 76.8-20.48 20.48-15.36 40.96-30.72 56.32-56.32l107.52-179.2h71.68c40.96 0 81.92-15.36 107.52-46.080 30.72-30.72 46.080-66.56 46.080-107.52v-102.4c0-25.6-10.24-51.2-30.72-71.68s-46.080-30.72-71.68-30.72h-35.84c-5.12-20.48-20.48-40.96-35.84-56.32-30.72-30.72-66.56-46.080-107.52-46.080zM691.2 243.2c0-15.36 5.12-25.6 15.36-35.84 20.48-20.48 51.2-20.48 71.68 0s15.36 20.48 15.36 35.84-5.12 25.6-15.36 35.84c-20.48 20.48-51.2 20.48-71.68 0s-15.36-20.48-15.36-35.84zM230.4 243.2c0-15.36 5.12-25.6 15.36-35.84 20.48-20.48 51.2-20.48 71.68 0 10.24 10.24 15.36 20.48 15.36 35.84s-5.12 25.6-15.36 35.84c-20.48 20.48-51.2 20.48-71.68 0-10.24-10.24-15.36-20.48-15.36-35.84zM885.76 294.4h35.84v102.4c0 15.36-5.12 25.6-15.36 35.84s-20.48 15.36-35.84 15.36h-716.8s0 0 0 0c-15.36 0-25.6-5.12-35.84-15.36s-15.36-20.48-15.36-35.84v-102.4h35.84c5.12 20.48 20.48 40.96 35.84 56.32 56.32 56.32 158.72 56.32 215.040 0s30.72-35.84 35.84-56.32h168.96c5.12 20.48 20.48 40.96 35.84 56.32 56.32 56.32 158.72 56.32 215.040 0s30.72-35.84 35.84-56.32zM486.4 550.4h189.44l-76.8 128c0 5.12-10.24 15.36-20.48 20.48-10.24 0-15.36 5.12-25.6 5.12h-71.68v-153.6zM215.040 550.4h168.96v153.6h-97.28c-10.24 0-25.6 0-30.72-10.24-10.24-5.12-15.36-20.48-15.36-30.72l-20.48-112.64z" />
<glyph unicode="&#xe911;" glyph-name="flag" d="M256 64c-25.6 0-42.667 17.067-42.667 42.667v640c0 25.6 17.067 42.667 42.667 42.667s42.667-17.067 42.667-42.667v-640c0-25.6-17.067-42.667-42.667-42.667zM853.333 298.667h-298.667c-25.6 0-42.667 17.067-42.667 42.667v21.333h-256c-25.6 0-42.667 17.067-42.667 42.667v341.333c0 21.333 8.533 42.667 25.6 59.733s38.4 25.6 59.733 25.6h256c25.6 0 42.667-17.067 42.667-42.667v-21.333h256c25.6 0 42.667-17.067 42.667-42.667v-384c0-25.6-17.067-42.667-42.667-42.667zM597.333 384h213.333v298.667h-213.333v-85.333c0-25.6-17.067-42.667-42.667-42.667s-42.667 17.067-42.667 42.667v149.333h-213.333v-298.667h256c25.6 0 42.667-17.067 42.667-42.667v-21.333z" />
<glyph unicode="&#xe912;" glyph-name="marker" d="M512 504.889c-28.444 0-56.889 11.378-79.644 34.133s-34.133 51.2-34.133 79.644 11.378 56.889 34.133 79.644c45.511 45.511 119.467 45.511 159.289 0s34.133-51.2 34.133-79.644-11.378-56.889-34.133-79.644-51.2-34.133-79.644-34.133zM512-64c-17.067 0-34.133 5.689-45.511 17.067-221.867 256-324.267 460.8-324.267 637.156s39.822 193.422 108.089 261.689c68.267 68.267 164.978 108.089 261.689 108.089s193.422-39.822 261.689-108.089c68.267-68.267 108.089-164.978 108.089-261.689 0-176.356-102.4-381.156-324.267-637.156-11.378-11.378-28.444-17.067-45.511-17.067zM512 846.222c-68.267 0-130.844-28.444-182.044-73.956-45.511-51.2-73.956-113.778-73.956-182.044 0-136.533 85.333-301.511 256-512 170.667 204.8 256 375.467 256 512s-28.444 130.844-73.956 182.044c-45.511 45.511-113.778 73.956-182.044 73.956z" />
<glyph unicode="&#xe913;" glyph-name="night" d="M530.071-64c-120.471 0-240.941 42.165-337.318 120.471s-156.612 186.729-180.706 307.2c-24.094 120.471 0 246.965 54.212 355.388s150.588 192.753 265.035 240.941c24.094 6.024 48.188 0 66.259-12.047 18.071-18.071 24.094-42.165 12.047-66.259-30.118-72.282-36.141-156.612-24.094-234.918 18.071-78.306 54.212-150.588 108.424-204.8s126.494-96.376 204.8-108.424c78.306-18.071 162.635-6.024 234.918 24.094 24.094 6.024 48.188 0 66.259-12.047s24.094-42.165 12.047-66.259c-42.165-96.376-108.424-180.706-192.753-240.941-90.353-60.235-192.753-90.353-295.153-90.353zM265.035 773.271c-36.141-30.118-66.259-72.282-90.353-114.447-48.188-84.329-60.235-180.706-42.165-271.059s66.259-174.682 138.541-234.918c72.282-60.235 162.635-96.376 259.012-96.376 84.329 0 162.635 24.094 228.894 72.282 30.118 18.071 60.235 42.165 78.306 72.282-54.212 0-102.4 0-156.612 6.024-102.4 18.071-192.753 72.282-271.059 144.565-72.282 72.282-120.471 168.659-144.565 265.035-12.047 54.212-12.047 102.4-6.024 156.612z" />
<glyph unicode="&#xe914;" glyph-name="plane" d="M832.341 746.342c-12.625-1.171-24.879-4.918-36.002-11.008l-151.006-80-216 52.992-12-5.984-68.992-40-40.992-24 37.984-28.992 87.008-66.016-108.992-58.018-117.024 53.026-13.984 5.984-14.016-7.008-56-29.986-36.992-19.998 28-30.016 172.992-185.984 16-19.008 22.016 11.998 164.994 88-32.994-181.982-11.008-58.018 55.006 23.010 81.988 35.008 11.998 4.992 5.022 11.998 118.98 288.994 168 90.016c46.268 24.864 64.896 83.744 40 129.984-12.173 22.268-32.661 38.813-56.994 46.016-11.968 3.654-24.521 5.012-36.992 4zM838.327 682.342c3.998 0.256 8.128 0.128 11.998-1.024 6.059-1.689 11.469-5.162 15.526-9.968 4.053-4.806 6.571-10.721 7.219-16.976s-0.597-12.561-3.584-18.097c-2.982-5.536-7.565-10.046-13.146-12.943l-179.008-96.994-10.014-4.992-4.002-11.008-118.976-286.016-14.016-5.982 34.014 188.992 12.002 64.99-58.014-31.006-201.986-108.992-127.008 138.014 4.992 3.008 117.024-52.032 14.976-6.976 12.992 8 487.042 256.994c3.725 1.856 7.808 2.882 11.968 3.008zM437.333 640.326l123.008-29.984-66.014-34.016-72.002 55.008 15.008 8.992z" />
<glyph unicode="&#xe915;" glyph-name="close" d="M960-64c-19.2 0-32 0-44.8 19.2l-403.2 403.2-403.2-403.2c-25.6-25.6-64-25.6-89.6 0s-25.6 64 0 89.6l403.2 403.2-403.2 403.2c-19.2 25.6-19.2 64 0 89.6s64 19.2 89.6 0l403.2-403.2 403.2 403.2c25.6 25.6 64 25.6 89.6 0s25.6-64 0-89.6l-403.2-403.2 403.2-403.2c25.6-25.6 25.6-64 0-89.6s-32-19.2-44.8-19.2z" />
<glyph unicode="&#xe916;" glyph-name="reveal" horiz-adv-x="2276" d="M1422.222-7.111c-56.889 0-102.4 34.133-113.778 91.022l-34.133 147.911c-91.022 0-182.044 0-284.444 0l-34.133-147.911c-11.378-56.889-79.644-102.4-136.533-91.022s-102.4 79.644-91.022 136.533l34.133 136.533c-102.4 34.133-204.8 68.267-295.822 125.156l-113.778-136.533c-45.511-45.511-113.778-56.889-159.289-11.378s-56.889 113.778-11.378 159.289l91.022 113.778c-79.644 79.644-170.667 159.289-250.311 261.689-34.133 45.511-22.756 113.778 22.756 159.289 45.511 34.133 113.778 22.756 159.289-22.756 91.022-113.778 193.422-204.8 318.578-284.444 0 0 0 0 0 0 125.156-79.644 261.689-136.533 409.6-170.667 0 0 0 0 0 0s0 0 0 0c136.533-22.756 273.067-22.756 398.222 0 0 0 0 0 0 0s0 0 0 0c147.911 34.133 284.444 91.022 409.6 170.667v0c113.778 79.644 227.556 170.667 318.578 284.444 45.511 45.511 113.778 56.889 159.289 11.378s56.889-113.778 11.378-159.289c-79.644-91.022-170.667-182.044-261.689-250.311l91.022-113.778c45.511-45.511 34.133-125.156-11.378-159.289-45.511-45.511-125.156-34.133-159.289 11.378l-113.778 136.533c-91.022-56.889-193.422-91.022-295.822-125.156l34.133-136.533c11.378-56.889-22.756-125.156-91.022-136.533 0 0-11.378 0-22.756 0z" />
<glyph unicode="&#xe917;" glyph-name="unreveal" horiz-adv-x="1463" d="M731.429-64v0c-263.314 0-512 160.914-716.8 468.114-14.629 21.943-14.629 58.514 0 80.457 204.8 314.514 453.486 475.429 716.8 475.429s512-160.914 716.8-468.114c14.629-21.943 14.629-58.514 0-80.457-204.8-307.2-453.486-468.114-716.8-468.114zM160.914 448c175.543-241.371 365.714-365.714 570.514-365.714s394.971 124.343 570.514 365.714c-175.543 241.371-365.714 365.714-570.514 365.714s-394.971-124.343-570.514-365.714zM731.429 155.429c-80.457 0-153.6 29.257-204.8 87.771-58.514 58.514-87.771 131.657-87.771 204.8s29.257 153.6 87.771 204.8 131.657 87.771 204.8 87.771 153.6-29.257 204.8-87.771c58.514-58.514 87.771-131.657 87.771-204.8s-29.257-153.6-87.771-204.8-131.657-87.771-204.8-87.771zM731.429 594.286c-36.571 0-73.143-14.629-102.4-43.886s-43.886-65.829-43.886-102.4 14.629-73.143 43.886-102.4c51.2-51.2 153.6-51.2 204.8 0s43.886 65.829 43.886 102.4-14.629 73.143-43.886 102.4c-29.257 29.257-65.829 43.886-102.4 43.886z" />
<glyph unicode="&#xe918;" glyph-name="worldloc" d="M828.952-64c-9.752 0-24.381 0-29.257 9.752-48.762 43.886-82.895 73.143-107.276 92.648-29.257 29.257-43.886 63.39-53.638 97.524-9.752 39.010 0 78.019 9.752 112.152 14.629 34.133 39.010 68.267 73.143 87.771 63.39 43.886 151.162 43.886 214.552 0s58.514-53.638 73.143-87.771c14.629-34.133 19.505-73.143 9.752-112.152s-24.381-73.143-53.638-97.524v0c-19.505-19.505-53.638-48.762-107.276-92.648-9.752-9.752-19.505-9.752-29.257-9.752zM828.952 277.333c-19.505 0-39.010-4.876-53.638-14.629s-29.257-24.381-34.133-43.886c-9.752-19.505-9.752-39.010-4.876-58.514 0-19.505 14.629-34.133 24.381-48.762s39.010-34.133 68.267-63.39c39.010 34.133 58.514 53.638 68.267 63.39v0c14.629 14.629 24.381 29.257 24.381 48.762s0 39.010-4.876 58.514c-9.752 19.505-19.505 34.133-34.133 43.886s-34.133 14.629-53.638 14.629zM931.352 77.41v0 0zM487.619-15.238c-4.876 0-14.629 0-19.505 0s-9.752 0-14.629 0c-73.143 4.876-141.41 24.381-204.8 63.39-82.895 48.762-151.162 117.029-195.048 204.8s-63.39 180.419-53.638 277.943c9.752 97.524 53.638 185.295 112.152 258.438 68.267 73.143 151.162 126.781 243.81 151.162 29.257 9.752 63.39 14.629 97.524 14.629 4.876 0 9.752 0 14.629 0 14.629 0 24.381 0 39.010 0 4.876 0 9.752 0 14.629 0 39.010 0 78.019-9.752 117.029-24.381 92.648-29.257 170.667-87.771 234.057-160.914 58.514-78.019 97.524-165.79 102.4-263.314 0-29.257-19.505-48.762-43.886-53.638-24.381 0-48.762 19.505-53.638 43.886 0 24.381-4.876 43.886-9.752 68.267h-185.295c0-34.133 4.876-63.39 4.876-97.524 0-29.257-19.505-48.762-48.762-48.762v0c-29.257 0-48.762 19.505-48.762 48.762 0 34.133 0 68.267-4.876 97.524h-190.171c0-34.133-4.876-63.39-4.876-97.524s0-63.39 4.876-97.524h121.905c29.257 0 48.762-19.505 48.762-48.762s-19.505-48.762-48.762-48.762h-102.4c19.505-68.267 43.886-131.657 78.019-195.048 9.752 0 14.629 0 24.381 0 29.257 0 48.762-19.505 53.638-43.886s-19.505-48.762-43.886-53.638c-9.752 0-24.381 0-34.133 0zM151.162 277.333c34.133-58.514 82.895-112.152 146.286-146.286 24.381-14.629 48.762-24.381 78.019-34.133-24.381 58.514-48.762 117.029-63.39 175.543h-160.914zM112.152 374.857h185.295c0 34.133-4.876 63.39-4.876 97.524s0 63.39 4.876 97.524h-185.295c0-14.629-9.752-34.133-9.752-48.762-4.876-48.762 0-97.524 9.752-146.286zM663.162 667.429h160.914c-9.752 14.629-19.505 29.257-29.257 43.886-48.762 58.514-112.152 107.276-185.295 131.657 0 0 0 0-4.876 0 24.381-58.514 48.762-117.029 63.39-175.543zM409.6 667.429h151.162c-14.629 68.267-43.886 131.657-78.019 190.171-34.133-58.514-58.514-121.905-78.019-190.171zM151.162 667.429h160.914c14.629 63.39 34.133 121.905 63.39 175.543-68.267-19.505-131.657-63.39-180.419-117.029-14.629-19.505-29.257-39.010-43.886-58.514zM828.952 131.048c-29.257 0-48.762 19.505-48.762 48.762s19.505 48.762 48.762 48.762 48.762-19.505 48.762-48.762v0c0-29.257-19.505-48.762-48.762-48.762z" />
</font>
</defs>
</svg>
